Спасибо Вам
Мы благодарны этим людям в поддержке сайта:
Vladimir72s
Попади и ты в этот блок, поставь оценку 5 и получи 500 MB к отдаче:
Войти на сайт сейчас.


Поделитесь в социальных сетях



Наша группа в ВК

:: Детали раздачи

Мадагаскар: Коллекция / Madagascar: Сollection (2005-2014) BDRip-AVC HD-Films | 60 fps

Скачать Скачать .torrent файл (основная ссылка для скачивания файла)
Смотреть / Слушать онлайн просмотр (ссылка для просмотра файла через плагин 'Torrent Stream')
Magnet-ссылка (альтернативная ссылка для скачивания файла)
Теги / Метки мультфильм, комедия, приключения, семейный, 2005
Описание
Мадагаскар

Скриншоты
Мадагаскар 2

General
Unique ID : 239681059296172540112696519138931364805 (0xB450E496694E8CC7A4527D0D7083D3C5)
Complete name : E:КодировкаРаздачамадагаскар 1-4Мадагаскар 2 - Африка 60fps.mkv
Format : Matroska
Format version : Version 4 / Version 2
File size : 3.78 GiB
Duration : 1h 29mn
Overall bit rate : 6 048 Kbps
Encoded date : UTC 2015-09-17 14:07:16
Writing application : mkvmerge v7.0.0 ('Where We Going') 64bit built on Jun 9 2014 15:16:27
Writing library : libebml v1.3.0 + libmatroska v1.4.1

Video
ID : 1
Format : AVC
Format/Info : Advanced Video Codec
Format profile : High@L4.1
Format settings, CABAC : Yes
Format settings, ReFrames : 4 frames
Codec ID : V_MPEG4/ISO/AVC
Duration : 1h 29mn
Bit rate : 5 594 Kbps
Width : 1 024 pixels
Height : 576 pixels
Display aspect ratio : 16:9
Frame rate : 59.940 fps
Color space : YUV
Chroma subsampling : 4:2:0
Bit depth : 8 bits
Scan type : Progressive
Bits/(Pixel*Frame) : 0.158
Stream size : 3.42 GiB (91%)
Writing library : x264 core 146 r2538 121396c
Encoding settings : cabac=1 / ref=3 / deblock=1:0:0 / analyse=0x3:0x113 / me=umh / subme=11 / psy=1 / psy_rd=1.00:0.00 / mixed_ref=1 / me_range=24 / chroma_me=1 / trellis=2 / 8x8dct=1 / cqm=0 / deadzone=21,11 / fast_pskip=1 / chroma_qp_offset=-2 / threads=12 / lookahead_threads=3 / sliced_threads=0 / nr=0 / decimate=1 / interlaced=0 / bluray_compat=0 / constrained_intra=0 / bframes=16 / b_pyramid=2 / b_adapt=2 / b_bias=0 / direct=1 / weightb=1 / open_gop=0 / weightp=2 / keyint=250 / keyint_min=25 / scenecut=40 / intra_refresh=0 / rc=2pass / mbtree=0 / bitrate=5594 / ratetol=1.0 / qcomp=0.60 / qpmin=0 / qpmax=69 / qpstep=4 / cplxblur=20.0 / qblur=0.5 / ip_ratio=1.40 / pb_ratio=1.30 / aq=1:1.00
Language : English
Default : Yes
Forced : No

Audio
ID : 2
Format : AC-3
Format/Info : Audio Coding 3
Mode extension : CM (complete main)
Codec ID : A_AC3
Duration : 1h 29mn
Bit rate mode : Constant
Bit rate : 448 Kbps
Channel(s) : 6 channels
Channel positions : Front: L C R, Side: L R, LFE
Sampling rate : 48.0 KHz
Bit depth : 16 bits
Compression mode : Lossy
Stream size : 286 MiB (7%)
Title : Дубляж
Language : Russian
Default : Yes
Forced : No

Text #1
ID : 3
Format : UTF-8
Codec ID : S_TEXT/UTF8
Codec ID/Info : UTF-8 Plain Text
Title : Rus
Language : Russian
Default : Yes
Forced : No

Text #2
ID : 4
Format : UTF-8
Codec ID : S_TEXT/UTF8
Codec ID/Info : UTF-8 Plain Text
Title : Eng
Language : English
Default : No
Forced : No

Text #3
ID : 5
Format : UTF-8
Codec ID : S_TEXT/UTF8
Codec ID/Info : UTF-8 Plain Text
Title : Ukr
Language : Ukrainian
Default : No
Forced : No

Menu
00:00:00.000 : en:Chapter 1
00:05:00.000 : en:Chapter 2
00:10:00.000 : en:Chapter 3
00:15:00.000 : en:Chapter 4
00:20:00.000 : en:Chapter 5
00:25:00.000 : en:Chapter 6
00:30:00.000 : en:Chapter 7
00:35:00.000 : en:Chapter 8
00:40:00.000 : en:Chapter 9
00:45:00.000 : en:Chapter 10
00:50:00.000 : en:Chapter 11
00:55:00.000 : en:Chapter 12
01:00:00.000 : en:Chapter 13
01:05:00.000 : en:Chapter 14
01:10:00.000 : en:Chapter 15
01:15:00.000 : en:Chapter 16
01:20:00.000 : en:Chapter 17
01:25:00.000 : en:Chapter 18


Скриншоты
Мадагаскар 3

General
Unique ID : 247618462225393443909218926171587853584 (0xBA4994C42B3FB17BAC6D232A9F7BBD10)
Complete name : E:КодировкаРаздачамадагаскар 1-4Мадагасказ 3 - Europe's Most Wanted 60fps.mkv
Format : Matroska
Format version : Version 4 / Version 2
File size : 3.87 GiB
Duration : 1h 33mn
Overall bit rate : 5 932 Kbps
Encoded date : UTC 2015-09-17 14:15:04
Writing application : mkvmerge v7.0.0 ('Where We Going') 64bit built on Jun 9 2014 15:16:27
Writing library : libebml v1.3.0 + libmatroska v1.4.1

Video
ID : 1
Format : AVC
Format/Info : Advanced Video Codec
Format profile : High@L4.1
Format settings, CABAC : Yes
Format settings, ReFrames : 4 frames
Codec ID : V_MPEG4/ISO/AVC
Duration : 1h 33mn
Bit rate : 5 474 Kbps
Width : 1 024 pixels
Height : 576 pixels
Display aspect ratio : 16:9
Frame rate : 59.940 fps
Color space : YUV
Chroma subsampling : 4:2:0
Bit depth : 8 bits
Scan type : Progressive
Bits/(Pixel*Frame) : 0.155
Stream size : 3.50 GiB (90%)
Writing library : x264 core 146 r2538 121396c
Encoding settings : cabac=1 / ref=3 / deblock=1:0:0 / analyse=0x3:0x113 / me=umh / subme=11 / psy=1 / psy_rd=1.00:0.00 / mixed_ref=1 / me_range=24 / chroma_me=1 / trellis=2 / 8x8dct=1 / cqm=0 / deadzone=21,11 / fast_pskip=1 / chroma_qp_offset=-2 / threads=12 / lookahead_threads=3 / sliced_threads=0 / nr=0 / decimate=1 / interlaced=0 / bluray_compat=0 / constrained_intra=0 / bframes=16 / b_pyramid=2 / b_adapt=2 / b_bias=0 / direct=1 / weightb=1 / open_gop=0 / weightp=2 / keyint=250 / keyint_min=25 / scenecut=40 / intra_refresh=0 / rc=2pass / mbtree=0 / bitrate=5474 / ratetol=1.0 / qcomp=0.60 / qpmin=0 / qpmax=69 / qpstep=4 / cplxblur=20.0 / qblur=0.5 / ip_ratio=1.40 / pb_ratio=1.30 / aq=1:1.00
Language : English
Default : Yes
Forced : No

Audio
ID : 2
Format : AC-3
Format/Info : Audio Coding 3
Mode extension : CM (complete main)
Codec ID : A_AC3
Duration : 1h 33mn
Bit rate mode : Constant
Bit rate : 448 Kbps
Channel(s) : 6 channels
Channel positions : Front: L C R, Side: L R, LFE
Sampling rate : 48.0 KHz
Bit depth : 16 bits
Compression mode : Lossy
Stream size : 299 MiB (8%)
Title : Дубляж
Language : Russian
Default : Yes
Forced : No

Text #1
ID : 3
Format : UTF-8
Codec ID : S_TEXT/UTF8
Codec ID/Info : UTF-8 Plain Text
Title : Rus
Language : Russian
Default : Yes
Forced : No

Text #2
ID : 4
Format : UTF-8
Codec ID : S_TEXT/UTF8
Codec ID/Info : UTF-8 Plain Text
Title : Rus
Language : Russian
Default : No
Forced : No

Text #3
ID : 5
Format : UTF-8
Codec ID : S_TEXT/UTF8
Codec ID/Info : UTF-8 Plain Text
Title : Eng
Language : English
Default : No
Forced : No

Text #4
ID : 6
Format : UTF-8
Codec ID : S_TEXT/UTF8
Codec ID/Info : UTF-8 Plain Text
Title : Eng
Language : English
Default : No
Forced : No

Text #5
ID : 7
Format : UTF-8
Codec ID : S_TEXT/UTF8
Codec ID/Info : UTF-8 Plain Text
Title : Eng
Language : English
Default : No
Forced : No

Text #6
ID : 8
Format : UTF-8
Codec ID : S_TEXT/UTF8
Codec ID/Info : UTF-8 Plain Text
Title : Eng
Language : English
Default : No
Forced : No

Text #7
ID : 9
Format : UTF-8
Codec ID : S_TEXT/UTF8
Codec ID/Info : UTF-8 Plain Text
Title : Ukr
Language : Ukrainian
Default : No
Forced : No

Text #8
ID : 10
Format : UTF-8
Codec ID : S_TEXT/UTF8
Codec ID/Info : UTF-8 Plain Text
Title : Ukr
Language : Ukrainian
Default : No
Forced : No

Menu
00:00:00.000 : en:Chapter 1
00:05:16.316 : en:Chapter 2
00:10:51.985 : en:Chapter 3
00:19:46.310 : en:Chapter 4
00:27:49.835 : en:Chapter 5
00:32:50.552 : en:Chapter 6
00:40:34.974 : en:Chapter 7
00:46:51.976 : en:Chapter 8
00:52:00.534 : en:Chapter 9
00:58:55.157 : en:Chapter 10
01:00:23.411 : en:Chapter 11
01:04:19.314 : en:Chapter 12
01:10:59.672 : en:Chapter 13
01:15:30.317 : en:Chapter 14
01:21:09.782 : en:Chapter 15
01:22:48.630 : en:Chapter 16


Скриншоты
Пингвины Мадагаскара

General
Unique ID : 191819673191891028851647967325902812795 (0x904F2010889E00A6A3C6B2F40C6B367B)
Complete name : E:КодировкаРаздачамадагаскар 1-4Пингвины мадагаскара 60fps.mkv
Format : Matroska
Format version : Version 4 / Version 2
File size : 3.92 GiB
Duration : 1h 31mn
Overall bit rate : 6 108 Kbps
Encoded date : UTC 2015-09-15 02:43:07
Writing application : mkvmerge v7.0.0 ('Where We Going') 64bit built on Jun 9 2014 15:16:27
Writing library : libebml v1.3.0 + libmatroska v1.4.1

Video
ID : 1
Format : AVC
Format/Info : Advanced Video Codec
Format profile : High@L4.1
Format settings, CABAC : Yes
Format settings, ReFrames : 4 frames
Codec ID : V_MPEG4/ISO/AVC
Duration : 1h 31mn
Bit rate : 5 462 Kbps
Width : 1 024 pixels
Height : 552 pixels
Display aspect ratio : 1.852
Original display aspect ratio : 1.850
Frame rate : 59.940 fps
Color space : YUV
Chroma subsampling : 4:2:0
Bit depth : 8 bits
Scan type : Progressive
Bits/(Pixel*Frame) : 0.161
Stream size : 3.43 GiB (88%)
Writing library : x264 core 146 r2538 121396c
Encoding settings : cabac=1 / ref=3 / deblock=1:0:0 / analyse=0x3:0x113 / me=umh / subme=11 / psy=1 / psy_rd=1.00:0.00 / mixed_ref=1 / me_range=24 / chroma_me=1 / trellis=2 / 8x8dct=1 / cqm=0 / deadzone=21,11 / fast_pskip=1 / chroma_qp_offset=-2 / threads=12 / lookahead_threads=3 / sliced_threads=0 / nr=0 / decimate=1 / interlaced=0 / bluray_compat=0 / constrained_intra=0 / bframes=16 / b_pyramid=2 / b_adapt=2 / b_bias=0 / direct=1 / weightb=1 / open_gop=0 / weightp=2 / keyint=250 / keyint_min=25 / scenecut=40 / intra_refresh=0 / rc=2pass / mbtree=0 / bitrate=5462 / ratetol=1.0 / qcomp=0.60 / qpmin=0 / qpmax=69 / qpstep=4 / cplxblur=20.0 / qblur=0.5 / ip_ratio=1.40 / pb_ratio=1.30 / aq=1:1.00
Language : English
Default : Yes
Forced : No

Audio
ID : 2
Format : AC-3
Format/Info : Audio Coding 3
Mode extension : CM (complete main)
Codec ID : A_AC3
Duration : 1h 31mn
Bit rate mode : Constant
Bit rate : 640 Kbps
Channel(s) : 6 channels
Channel positions : Front: L C R, Side: L R, LFE
Sampling rate : 48.0 KHz
Bit depth : 16 bits
Compression mode : Lossy
Stream size : 420 MiB (10%)
Title : Дубляж
Language : Russian
Default : Yes
Forced : No

Text #1
ID : 3
Format : UTF-8
Codec ID : S_TEXT/UTF8
Codec ID/Info : UTF-8 Plain Text
Default : Yes
Forced : No

Text #2
ID : 4
Format : UTF-8
Codec ID : S_TEXT/UTF8
Codec ID/Info : UTF-8 Plain Text
Default : No
Forced : No

Text #3
ID : 5
Format : UTF-8
Codec ID : S_TEXT/UTF8
Codec ID/Info : UTF-8 Plain Text
Default : No
Forced : No

Text #4
ID : 6
Format : UTF-8
Codec ID : S_TEXT/UTF8
Codec ID/Info : UTF-8 Plain Text
Default : No
Forced : No

Menu
00:00:00.000 : en:Chapter 1
00:03:38.718 : en:Chapter 2
00:07:27.738 : en:Chapter 3
00:09:24.272 : en:Chapter 4
00:12:10.521 : en:Chapter 5
00:16:09.301 : en:Chapter 6
00:19:22.452 : en:Chapter 7
00:23:05.509 : en:Chapter 8
00:26:58.658 : en:Chapter 9
00:29:01.322 : en:Chapter 10
00:30:36.417 : en:Chapter 11
00:34:01.205 : en:Chapter 12
00:38:05.992 : en:Chapter 13
00:41:31.197 : en:Chapter 14
00:44:25.162 : en:Chapter 15
00:46:39.880 : en:Chapter 16
00:49:12.950 : en:Chapter 17
00:54:31.559 : en:Chapter 18
00:56:01.066 : en:Chapter 19
01:00:04.017 : en:Chapter 20
01:03:07.241 : en:Chapter 21
01:06:41.998 : en:Chapter 22
01:09:52.271 : en:Chapter 23
01:12:10.409 : en:Chapter 24
01:14:19.913 : en:Chapter 25
01:15:59.012 : en:Chapter 26
01:18:28.161 : en:Chapter 27
01:20:49.636 : en:Chapter 28


Скриншоты


Просьба к переливающим на другие сайты, в оформлении указывайте пожалуйста авторство группы http://i70.fastpic.ru/big/2015/0630/22/345d15546f973e9d37bea1ba85668c22.gif
Скриншоты
Оповестить о раздаче Включить оповещение на почту ( о новом торрент-файле ), когда появится раздача с похожим названием: Мадагаскар: Коллекция, Madagascar: Сollection

E-Mail адрес:
Внимание: Если вы не авторизованы, то для вас будет создана временная учетная запись (доступ к аккаунту будет прикреплен в письме).
Похожие файлы
Загрузка / Обновление
Категория Мультфильмы RSS лента
Добавлен (1 год, 8 месяцев назад)
Просмотров 53 раз (a)
Взят 0 раз (a)
Файлы 4, 15.43 GB (16 571 389 407 байт)
Оценка
IMDB: 6.9, 223772 голоса (ов), Кинопоиск: 8.007, 110892 голоса (ов)
Раздал Vladimir72s  (Искать торренты)
Участники
Раздают (отдают): 0 (30), Скачивают (качают): 0 (6), Завершено: 0 (28)
Просматривают

« Не повезло (2013) HDTV 1080p -†- ¿? -†- FastStone Capture 8.3 (2015) PC | RePack by KpoJIuK »

:: Список Комментариев
Нет комментариев.

 Нет комментариев

Счетчики
Рейтинг@Mail.ru Анализ сайта kino-olimp.ru Яндекс.Метрика


Правообладателям
По всем вопросам сотрудничества, удаления авторских файлов "пачкой", просьба отписаться по адреcу:
abuse@kino-olimp.ru

Посетители
Новый пользователь:
vikmarchello-551717
Регистрация сегодня:
g.a.l.i.toks-521717, vikmarchello-551717, A-le-xandra-131717
Активность сегодня:
vikmarchello-551717, ristiina, Тя, Vladimir72s, control24-281617